<?xml version="1.0" standalone="no"?>
<!DOCTYPE svg PUBLIC "-//W3C//DTD SVG 1.1//EN" "http://www.w3.org/Graphics/SVG/1.1/DTD/svg11.dtd" >
<svg xmlns="http://www.w3.org/2000/svg">
<metadata>Generated by IcoMoon</metadata>
<defs>
<font id="icomoon" horiz-adv-x="1024">
<font-face units-per-em="1024" ascent="960" descent="-64" />
<missing-glyph horiz-adv-x="1024" />
<glyph unicode="&#x20;" horiz-adv-x="512" d="" />
<glyph unicode="&#xe000;" glyph-name="salient-right-arrow" d="M261.254 919.845l43.012 43.016 506.64-506.632-1.142-1.142 1.142-1.14-506.634-506.634-43.018 43.016 464.76 464.76z" />
<glyph unicode="&#xe001;" glyph-name="salient-left-arrow" d="M768.666-9.669l-43.012-43.018-506.638 506.634 1.142 1.142-1.142 1.142 506.632 506.632 43.018-43.016-464.76-464.76z" />
<glyph unicode="&#xe002;" glyph-name="salient-search" d="M1007.728 101.089l-246.59 246.58c36.202 60.716 57.036 131.612 57.036 207.29 0 223.888-182.15 406.040-406.040 406.040-223.884 0-406.036-182.152-406.036-406.040s182.152-406.032 406.038-406.032c75.492 0 146.22 20.732 206.84 56.766 0.036-0.036 0.064-0.076 0.102-0.114l246.582-246.568c11.268-11.286 29.832-10.992 41.46 0.636l99.968 99.974c11.628 11.616 11.912 30.196 0.64 41.468zM105.412 554.959c0 169.126 137.596 306.722 306.722 306.722s306.722-137.594 306.722-306.722c0-169.122-137.594-306.716-306.722-306.716s-306.722 137.594-306.722 306.716z" />
<glyph unicode="&#xe003;" glyph-name="salient-x" d="M937.080 162.655l-300.752 300.752 280.272 280.272c7.142 7.142 7.806 18.056 1.484 24.378l-98.344 98.346c-6.322 6.322-17.238 5.656-24.378-1.484l-280.272-280.272-281.552 281.55c-7.142 7.142-18.056 7.806-24.378 1.484l-98.344-98.344c-6.322-6.322-5.658-17.238 1.484-24.378l281.55-281.552-302.032-302.032c-7.14-7.142-7.806-18.054-1.484-24.378l98.348-98.344c6.32-6.322 17.236-5.658 24.378 1.484l302.032 302.032 300.748-300.752c7.142-7.142 18.056-7.808 24.378-1.484l98.348 98.344c6.318 6.322 5.654 17.234-1.486 24.378z" />
<glyph unicode="&#xe004;" glyph-name="salient-right-line" d="M1013.402 959.719l10.862-10.86-1006.072-1006.072-10.86 10.86z" />
<glyph unicode="&#xe005;" glyph-name="salient-back-to-all" d="M407.758 559.141h-396.494v396.496h396.494v-396.496zM35.84 583.717h347.342v347.344h-347.342v-347.344zM1017.038 559.141h-396.494v396.496h396.494v-396.496zM645.12 583.717h347.342v347.344h-347.342v-347.344zM408.27-49.951h-396.494v396.494h396.494v-396.494zM36.352-25.375h347.342v347.342h-347.342v-347.342zM1017.55-49.951h-396.494v396.494h396.494v-396.494zM645.632-25.375h347.342v347.342h-347.342v-347.342z" />
<glyph unicode="&#xe006;" glyph-name="salient-right-arrow-thin" d="M266.664 926.541l16.482 16.466 487.896-487.936-487.906-487.904-16.472 16.47 471.456 471.456z" />
<glyph unicode="&#xe007;" glyph-name="salient-left-arrow-thin" d="M735.206 926.541l-16.48 16.466-487.902-487.936 487.912-487.904 16.47 16.47-471.454 471.456z" />
<glyph unicode="&#xe008;" glyph-name="salient-down-arrow" d="M976.752 688.953l43.018-43.008-506.634-506.64-1.136 1.138-1.146-1.142-506.63 506.628 43.014 43.018 464.762-464.756 464.752 464.762z" />
<glyph unicode="&#xe009;" glyph-name="salient-google-plus" d="M559.066 903.087c0 0-200.956 0-267.94 0-120.12 0-233.17-91.006-233.17-196.422 0-107.726 81.882-194.666 204.088-194.666 8.498 0 16.756 0.17 24.842 0.752-7.93-15.186-13.602-32.288-13.602-50.042 0-29.938 16.104-54.21 36.468-74.024-15.386 0-30.242-0.448-46.452-0.448-148.782 0.002-263.3-94.758-263.3-193.020 0-96.778 125.542-157.314 274.334-157.314 169.624 0 263.306 96.244 263.306 193.028 0 77.6-22.896 124.072-93.686 174.134-24.216 17.144-70.53 58.836-70.53 83.344 0 28.72 8.196 42.868 51.428 76.646 44.312 34.624 75.672 83.302 75.672 139.916 0 67.406-30.020 133.098-86.372 154.772h84.954l59.96 43.344zM465.48 247.629c2.126-8.972 3.284-18.206 3.284-27.628 0-78.2-50.392-139.31-194.974-139.31-102.842 0-177.116 65.104-177.116 143.3 0 76.642 92.126 140.444 194.964 139.332 24-0.254 46.368-4.116 66.67-10.69 55.826-38.826 95.876-60.762 107.172-105.004zM300.818 539.311c-69.038 2.064-134.636 77.226-146.552 167.86-11.916 90.666 34.37 160.042 103.388 157.99 69.010-2.074 134.638-74.814 146.558-165.458 11.906-90.66-34.39-162.458-103.394-160.392zM832 711.087v192h-64v-192h-192v-64h192v-192h64v192h192v64z" />
<glyph unicode="&#xe00a;" glyph-name="salient-facebook" d="M575.87-56.913h-191.87v512h-128v176.45l128 0.058-0.208 103.952c0 143.952 39.034 231.54 208.598 231.54h141.176v-176.484h-88.23c-66.032 0-69.206-24.656-69.206-70.684l-0.262-88.324h158.69l-18.704-176.45-139.854-0.058-0.13-512z" />
<glyph unicode="&#xe00b;" glyph-name="salient-twitter" d="M1024 772.669c-37.676-16.708-78.164-28.002-120.66-33.080 43.372 26 76.686 67.17 92.372 116.23-40.596-24.078-85.556-41.56-133.41-50.98-38.32 40.83-92.922 66.34-153.346 66.34-116.022 0-210.088-94.058-210.088-210.078 0-16.466 1.858-32.5 5.44-47.878-174.6 8.764-329.402 92.4-433.018 219.506-18.084-31.028-28.446-67.116-28.446-105.618 0-72.888 37.088-137.192 93.46-174.866-34.438 1.092-66.832 10.542-95.154 26.278-0.020-0.876-0.020-1.756-0.020-2.642 0-101.788 72.418-186.696 168.522-206-17.626-4.8-36.188-7.372-55.348-7.372-13.538 0-26.698 1.32-39.528 3.772 26.736-83.46 104.32-144.206 196.252-145.896-71.9-56.35-162.486-89.934-260.916-89.934-16.958 0-33.68 0.994-50.116 2.94 92.972-59.61 203.402-94.394 322.042-94.394 386.422 0 597.736 320.124 597.736 597.744 0 9.108-0.206 18.168-0.61 27.18 41.056 29.62 76.672 66.62 104.836 108.748z" />
<glyph unicode="&#xe00c;" glyph-name="salient-down-arrow-thin" d="M985.186 661.197l16.47-16.48-487.94-487.896-487.906 487.906 16.47 16.47 471.456-471.454z" />
<glyph unicode="&#xe00d;" glyph-name="salient-pinterest" d="M512 967.087c-282.77 0-512-229.23-512-512s229.226-512 512-512c282.77 0 512 229.23 512 512s-229.23 512-512 512zM561.644 282.969c-46.52 3.614-66.042 26.656-102.504 48.808-20.060-105.176-44.564-206.016-117.14-258.686-22.404 158.968 32.894 278.364 58.57 405.114-43.784 73.706 5.27 222.034 97.62 185.474 113.626-44.948-98.4-274.008 43.932-302.616 148.62-29.868 209.288 257.858 117.142 351.424-133.158 135.106-387.598 3.080-356.31-190.356 7.614-47.292 56.472-61.638 19.524-126.902-85.22 18.892-110.65 86.102-107.376 175.712 5.268 146.674 131.784 249.364 258.686 263.566 160.484 17.964 311.106-58.908 331.906-209.876 23.412-170.39-72.448-354.93-244.050-341.662z" />
<glyph unicode="&#xe00e;" glyph-name="salient-heart" d="M1024 608.931c0-86.362-37.218-164.030-96.49-217.844h0.49l-320-320c-32-32-64-64-96-64s-64 32-96 64l-320 320h0.49c-59.272 53.814-96.49 131.482-96.49 217.844 0 162.458 131.698 294.156 294.156 294.156 86.362 0 164.030-37.218 217.844-96.49 53.814 59.272 131.482 96.49 217.844 96.49 162.456 0 294.156-131.698 294.156-294.156z" />
<glyph unicode="&#xe00f;" glyph-name="salient-heart-2" d="M1024 608.931c0 162.458-131.7 294.156-294.156 294.156-86.362 0-164.030-37.218-217.844-96.49-53.814 59.272-131.482 96.49-217.844 96.49-162.458 0-294.156-131.698-294.156-294.156 0-86.362 37.218-164.030 96.49-217.844h-0.49l320-320c32-32 64-64 96-64s64 32 96 64l320 320h-0.49c59.272 53.814 96.49 131.482 96.49 217.844zM841.468 485.855l-323.978-324.258c-1.678-1.678-3.532-3.532-5.49-5.48-1.96 1.95-3.814 3.802-5.49 5.48l-323.978 324.256c-35.166 31.928-54.532 75.638-54.532 123.078 0 91.618 74.538 166.156 166.156 166.156 47.44 0 91.15-19.366 123.076-54.532l94.768-104.38 94.768 104.378c31.928 35.168 75.636 54.534 123.076 54.534 91.618 0 166.156-74.538 166.156-166.156 0-47.44-19.368-91.15-54.532-123.076z" />
<glyph unicode="&#xe010;" glyph-name="salient-plus" d="M580.142 523.253v443.858h-136.262v-443.858h-443.856v-136.216h443.856v-443.926h136.262v443.926h443.834v136.216z" />
<glyph unicode="&#xe011;" glyph-name="salient-pencil" d="M639.77 846.041l-48.598-84.2 112.216-64.8 48.6 84.204-112.218 64.796zM558.774 705.733l-242.994-420.852 112.216-64.796 242.994 420.852-112.216 64.796zM690.816 891.395l74.922-43.286c41.682-24.046 55.52-76.564 31.726-117.784l-70.364-121.79-275.394-477.042-169.254-111.708c-40.96-27.004-70.24-9.026-67.328 38.894l12.148 202.412 345.676 598.836c23.876 41.214 76.524 55.304 117.868 31.468zM274.69 84.073l120.908 79.818-112.218 64.8-8.69-144.618z" />
<glyph unicode="&#xe012;" glyph-name="uniE012" d="M882.402 662.171h-113.644v45.506c0 142.796-115.752 258.55-258.54 258.55s-258.54-115.754-258.54-258.55v-45.506h-113.612c-46.982 0-85.064-46.726-85.064-104.346v-508.672c0-57.64 38.082-104.356 85.064-104.356h744.336c46.96 0 85.044 46.726 85.044 104.356l-0.002 508.672c0 57.62-38.082 104.346-85.042 104.346zM360.93 707.677c0 82.32 66.97 149.3 149.3 149.3s149.3-66.98 149.3-149.3v-45.506h-298.598l-0.002 45.506zM858.204 54.027h-695.962v498.892h695.952v-498.892z" />
<glyph unicode="&#xe013;" glyph-name="be" d="M416.554 481.031c0 0 94.142 6.994 94.142 117.398 0 110.402-77.026 164.276-174.588 164.276h-321.048v-616.978h321.050c0 0 195.974-6.17 195.974 182.11-0.002-0.002 8.554 153.194-115.53 153.194zM312.99 653.051h23.12c0 0 43.634 0 43.634-64.186s-25.676-73.496-54.772-73.496h-168.458v137.682h156.476zM328.006 255.383h-171.492v164.882h179.596c0 0 65.040 0.856 65.040-84.728 0-71.176-47.356-79.4-73.144-80.154zM793.472 605.733c-237.262 0-237.038-237.042-237.038-237.042s-16.294-235.846 237.052-235.846c0 0 211.106-12.062 211.106 164.064h-108.57c0 0 3.614-66.342-98.928-66.342 0 0-108.566-7.26-108.566 107.352h319.692c-0.002 0 34.97 267.814-214.748 267.814zM889.986 420.265h-202.676c0 0 13.27 95.104 108.584 95.104 95.306 0 94.092-95.104 94.092-95.104zM660.752 726.369h254.54v-76h-254.54z" />
<glyph unicode="&#xe014;" glyph-name="vimeo" d="M0 658.717l41.594-54.544c0 0 85.77 67.608 114.36 33.802 28.588-33.802 137.736-441.956 174.17-517.246 31.8-66.030 119.518-153.32 215.714-90.982 96.136 62.34 415.84 335.286 473.066 657.616 57.18 322.226-384.72 254.726-431.53-26.010 116.99 70.236 179.436-28.538 119.57-140.372-59.758-111.724-114.36-184.592-142.952-184.592-28.538 0-50.49 74.768-83.188 205.446-33.798 135.102-33.592 378.46-174.116 350.87-132.518-26.012-306.688-233.988-306.688-233.988z" />
<glyph unicode="&#xe015;" glyph-name="salient-m-eye" d="M512 839.111q69.667 0 135.5-21.167t115.5-55 93.5-74.833 73.667-82 51.667-74.833 32.167-54.833l10-21.333q-2.333-5-6.333-13.5t-18.833-34.667-31.667-51.667-44.333-60-56.833-64.333-69.5-60.167-82.333-51.5-94.833-34.667-107.333-13.5q-69.667 0-135.5 21.167t-115.5 54.833-93.5 74.333-73.667 81.5-51.667 74.5-32.167 55l-10 21q2.333 5 6.333 13.5t18.833 34.833 31.667 51.833 44.333 60.333 56.833 64.667 69.5 60.333 82.333 51.833 94.833 34.833 107.333 13.5zM512 753.778q-46.667 0-91.667-12.333t-81.167-31.833-70.667-47.167-59.667-54.5-48.833-57.667-37.667-52.833-26.333-44q12.333-21.667 26.333-43.5t37.667-52.333 48.833-57 59.667-53.833 70.667-46.667 81.167-31.5 91.667-12.167 91.667 12.333 81.167 31.667 70.667 46.833 59.667 54.167 48.833 57.333 37.667 52.667 26.333 43.667q-12.333 21.667-26.333 43.667t-37.667 52.667-48.833 57.333-59.667 54.167-70.667 46.833-81.167 31.667-91.667 12.333zM512 625.778q70.667 0 120.667-50t50-120.667-50-120.667-120.667-50-120.667 50-50 120.667 50 120.667 120.667 50zM512 540.444q-35.333 0-60.333-25t-25-60.333 25-60.333 60.333-25 60.333 25 25 60.333-25 60.333-60.333 25z" />
<glyph unicode="&#xe016;" glyph-name="salient-m-clock" d="M512 924.444q95.667 0 182.5-37.167t149.667-100 100-149.667 37.167-182.5-37.167-182.5-100-149.667-149.667-100-182.5-37.167-182.5 37.167-149.667 100-100 149.667-37.167 182.5 37.167 182.5 100 149.667 149.667 100 182.5 37.167zM512 839.111q-78 0-149.167-30.5t-122.5-81.833-81.833-122.5-30.5-149.167 30.5-149.167 81.833-122.5 122.5-81.833 149.167-30.5 149.167 30.5 122.5 81.833 81.833 122.5 30.5 149.167-30.5 149.167-81.833 122.5-122.5 81.833-149.167 30.5zM512 753.778q17.667 0 30.167-12.5t12.5-30.167v-238.333l115.667-115.333q12.333-12.333 12.333-30.333t-12.333-30.333-30.333-12.333-30.333 12.333l-128 128q-12.333 12.333-12.333 30.333v256q0 17.667 12.5 30.167t30.167 12.5z" />
<glyph unicode="&#xe023;" glyph-name="salient-m-gear" d="M512 967.111q53 0 90.5-37.5t37.5-90.5v-22q15.667-5.333 37.667-15.333l15.333 15.333q37.667 37.667 90.667 37.667 52.667 0 90.333-37.667t37.667-90.333q0-53-37.667-90.667l-15.333-15.333q10-22 15.333-37.667h22q53 0 90.5-37.5t37.5-90.5-37.5-90.5-90.5-37.5h-22q-5.333-15.667-15.333-37.667l15.333-15.333q37.667-37.667 37.667-90.667 0-52.667-37.667-90.333t-90.333-37.667q-53 0-90.667 37.667l-15.333 15.333q-22-10-37.667-15.333v-22q0-53-37.5-90.5t-90.5-37.5-90.5 37.5-37.5 90.5v22q-15.667 5.333-37.667 15.333l-15.333-15.333q-37.667-37.667-90.333-37.667-53 0-90.5 37.667t-37.5 90.333q0 53.333 37.333 90.667l15.333 15.333q-10 22-15.333 37.667h-22q-53 0-90.5 37.5t-37.5 90.5 37.5 90.5 90.5 37.5h22q5.333 15.667 15.333 37.667l-15.333 15.333q-37.333 37.333-37.333 90.667 0 52.667 37.5 90.333t90.5 37.667q52.667 0 90.333-37.667l15.333-15.333q22 10 37.667 15.333v22q0 53 37.5 90.5t90.5 37.5zM512 881.778q-17.667 0-30.167-12.5t-12.5-30.167v-88.333q-74.667-10.667-136.333-56.333l-62.333 62.333q-12.667 12.667-30 12.667-17.667 0-30.167-12.5t-12.5-30.167q0-18 12.333-30.333l62.333-62.333q-45.667-61.667-56.333-136.333h-88.333q-17.667 0-30.167-12.5t-12.5-30.167 12.5-30.167 30.167-12.5h88.333q10.667-74.667 56.333-136.333l-62.333-62.333q-12.333-12.333-12.333-30.333 0-17.667 12.5-30.167t30.167-12.5q17.333 0 30 12.667l62.333 62.333q61.667-45.667 136.333-56.333v-88.333q0-17.667 12.5-30.167t30.167-12.5 30.167 12.5 12.5 30.167v88.333q74.667 10.667 136.333 56.333l62.333-62.333q12.667-12.667 30.333-12.667t30.167 12.5 12.5 30.167-12.667 30.333l-62.333 62.333q45.667 61.667 56.333 136.333h88.333q17.667 0 30.167 12.5t12.5 30.167-12.5 30.167-30.167 12.5h-88.333q-10.667 74.667-56.333 136.333l62.333 62.333q12.667 12.667 12.667 30.333t-12.5 30.167-30.167 12.5-30.333-12.667l-62.333-62.333q-61.667 45.667-136.333 56.333v88.333q0 17.667-12.5 30.167t-30.167 12.5zM512 625.778q70.667 0 120.667-50t50-120.667-50-120.667-120.667-50-120.667 50-50 120.667 50 120.667 120.667 50zM512 540.444q-35.333 0-60.333-25t-25-60.333 25-60.333 60.333-25 60.333 25 25 60.333-25 60.333-60.333 25z" />
<glyph unicode="&#xe024;" glyph-name="salient-m-heart" d="M753.333 881.778q69.667 0 128.5-34.333t93.167-93.167 34.333-128.5q0-50-19.167-97.167t-55.833-83.833l-422.333-422.333-422.333 422.333q-36.667 36.667-55.833 83.833t-19.167 97.167q0 69.667 34.333 128.5t93.167 93.167 128.5 34.333q50.333 0 97.167-19t83.833-56l60.333-60.333 60.333 60.333q36.667 36.667 83.833 55.833t97.167 19.167zM753.333 796.444q-33.333 0-64.667-12.667t-56-37.333l-120.667-120.667-120.667 120.667q-24.667 24.667-56 37.333t-64.667 12.667q-46.667 0-85.833-22.833t-62-62-22.833-85.833q0-33.333 12.667-64.667t37.333-56l362-362 362 362q24.667 24.667 37.333 56t12.667 64.667q0 46.667-22.833 85.833t-62 62-85.833 22.833z" />
<glyph unicode="&#xe034;" glyph-name="uniE034" d="M213.333 967.111h597.333q53 0 90.5-37.5t37.5-90.5v-768q0-53-37.5-90.5t-90.5-37.5h-597.333q-53 0-90.5 37.5t-37.5 90.5v768q0 53 37.5 90.5t90.5 37.5zM341.333 241.778h341.333q17.667 0 30.167-12.5t12.5-30.167-12.5-30.167-30.167-12.5h-341.333q-17.667 0-30.167 12.5t-12.5 30.167 12.5 30.167 30.167 12.5zM341.333 412.444h341.333q17.667 0 30.167-12.5t12.5-30.167-12.5-30.167-30.167-12.5h-341.333q-17.667 0-30.167 12.5t-12.5 30.167 12.5 30.167 30.167 12.5zM810.667 881.778h-597.333q-17.667 0-30.167-12.5t-12.5-30.167v-768q0-17.667 12.5-30.167t30.167-12.5h597.333q17.667 0 30.167 12.5t12.5 30.167v768q0 17.667-12.5 30.167t-30.167 12.5zM341.333 583.111h341.333q17.667 0 30.167-12.5t12.5-30.167-12.5-30.167-30.167-12.5h-341.333q-17.667 0-30.167 12.5t-12.5 30.167 12.5 30.167 30.167 12.5zM341.333 753.778h170.667q17.667 0 30.167-12.5t12.5-30.167-12.5-30.167-30.167-12.5h-170.667q-17.667 0-30.167 12.5t-12.5 30.167 12.5 30.167 30.167 12.5z" />
<glyph unicode="&#xe036;" glyph-name="salient-m-search" d="M426.667 924.444q78 0 149.167-30.5t122.5-81.833 81.833-122.5 30.5-149.167q0-67-21.833-128.333t-62.167-111.333l242.333-242q12.333-12.333 12.333-30.333 0-18.333-12.167-30.5t-30.5-12.167q-18 0-30.333 12.333l-242 242.333q-50-40.333-111.333-62.167t-128.333-21.833q-78 0-149.167 30.5t-122.5 81.833-81.833 122.5-30.5 149.167 30.5 149.167 81.833 122.5 122.5 81.833 149.167 30.5zM426.667 839.111q-60.667 0-116-23.667t-95.333-63.667-63.667-95.333-23.667-116 23.667-116 63.667-95.333 95.333-63.667 116-23.667 116 23.667 95.333 63.667 63.667 95.333 23.667 116-23.667 116-63.667 95.333-95.333 63.667-116 23.667z" />
<glyph unicode="&#xe050;" glyph-name="salient-m-prev" d="M725.333 796.444q17.667 0 30.167-12.5t12.5-30.167q0-18-12.333-30.333l-268.667-268.333 268.667-268.667q12.333-12.333 12.333-30.333 0-17.667-12.5-30t-30.167-12.333q-18 0-30.333 12.333l-298.667 298.667q-12.333 13-12.333 30.333 0 17 12.333 30l298.667 298.667q12.667 12.667 30.333 12.667zM256 796.444q17.667 0 30.167-12.5t12.5-30.167v-597.333q0-17.667-12.5-30.167t-30.167-12.5-30.167 12.5-12.5 30.167v597.333q0 17.667 12.5 30.167t30.167 12.5z" />
<glyph unicode="&#xe051;" glyph-name="salient-m-rewind" d="M768 796.444q17.667 0 30.167-12.5t12.5-30.167-12.667-30.333l-268.333-268.333 268.333-268.333q12.667-12.667 12.667-30.333t-12.5-30.167-30.167-12.5q-18 0-30.333 12.333l-298.667 298.667q-12.333 12.333-12.333 30.333t12.333 30.333l298.667 298.667q12.333 12.333 30.333 12.333zM512 796.444q17.667 0 30.167-12.5t12.5-30.167-12.667-30.333l-268.333-268.333 268.333-268.333q12.667-12.667 12.667-30.333t-12.5-30.167-30.167-12.5q-18 0-30.333 12.333l-298.667 298.667q-12.333 12.333-12.333 30.333t12.333 30.333l298.667 298.667q12.333 12.333 30.333 12.333z" />
<glyph unicode="&#xe052;" glyph-name="salient-m-play" d="M170.667 71.111v768l640-384zM644.667 455.111l-388.667 233.333v-466.667z" />
<glyph unicode="&#xe054;" glyph-name="salient-m-stop" d="M256 839.111h512q53 0 90.5-37.5t37.5-90.5v-512q0-53-37.5-90.5t-90.5-37.5h-512q-53 0-90.5 37.5t-37.5 90.5v512q0 53 37.5 90.5t90.5 37.5zM768 753.778h-512q-17.667 0-30.167-12.5t-12.5-30.167v-512q0-17.667 12.5-30.167t30.167-12.5h512q17.667 0 30.167 12.5t12.5 30.167v512q0 17.667-12.5 30.167t-30.167 12.5z" />
<glyph unicode="&#xe055;" glyph-name="salient-m-ff" d="M469.333 796.444q17.667 0 30-12.333l298.667-298.667q12.667-12.667 12.667-30.333t-12.667-30.333l-298.667-298.667q-12.333-12.333-30-12.333t-30.167 12.5-12.5 30.167q0 18 12.333 30.333l268.333 268.333-268.333 268.333q-12.333 12.333-12.333 30.333 0 18.333 12.167 30.5t30.5 12.167zM213.333 796.444q17.667 0 30-12.333l298.667-298.667q12.667-12.667 12.667-30.333t-12.667-30.333l-298.667-298.667q-12.333-12.333-30-12.333t-30.167 12.5-12.5 30.167q0 18 12.333 30.333l268.333 268.333-268.333 268.333q-12.333 12.333-12.333 30.333 0 18.333 12.167 30.5t30.5 12.167z" />
<glyph unicode="&#xe056;" glyph-name="salient-m-next" d="M256 796.444q17.667 0 30.333-12.667l298.667-298.667q12.333-12.333 12.333-30 0-18-12.333-30.333l-298.667-298.667q-12.333-12.333-30.333-12.333-17.667 0-30.167 12.333t-12.5 30q0 17.333 12.333 30.333l268.667 268.667-268.667 268.333q-12.333 13-12.333 30.333 0 17.667 12.5 30.167t30.167 12.5zM725.333 796.444q17.667 0 30.167-12.5t12.5-30.167v-597.333q0-17.667-12.5-30.167t-30.167-12.5-30.167 12.5-12.5 30.167v597.333q0 17.667 12.5 30.167t30.167 12.5z" />
<glyph unicode="&#xe05b;" glyph-name="uniE05B" d="M864 263.111c-52.688 0-99.296-25.584-128.432-64.88l-421.36 214.72c3.664 13.456 5.792 27.536 5.792 42.16 0 18.304-3.216 35.808-8.88 52.176l423.76 205.616c29.088-39.808 76.016-65.792 129.12-65.792 88.368 0 160 71.648 160 160 0 88.368-71.632 160-160 160s-160-71.632-160-160c0-12.432 1.568-24.464 4.24-36.080l-429.84-208.576c-29.28 32.272-71.392 52.656-118.4 52.656-88.368 0-160-71.632-160-160 0-88.352 71.632-160 160-160 50.896 0 96.128 23.824 125.424 60.864l423.104-215.632c-2.864-11.968-4.528-24.384-4.528-37.232 0-88.368 71.632-160 160-160s160 71.632 160 160-71.632 160-160 160zM864 903.111c53.008 0 96-42.992 96-96s-42.992-96-96-96-96 42.992-96 96 42.992 96 96 96zM160 359.111c-53.024 0-96 42.992-96 96s42.976 96 96 96c53.008 0 96-42.992 96-96s-42.992-96-96-96zM864 7.111c-53.008 0-96 42.992-96 96s42.992 96 96 96 96-42.992 96-96-42.992-96-96-96z" />
<glyph unicode="&#xe067;" glyph-name="uniE067" d="M96 519.111h-64c-17.664 0-32-14.336-32-32v-64c0-17.664 14.336-32 32-32h64c17.664 0 32 14.336 32 32v64c0 17.664-14.336 32-32 32zM992 487.111h-672c-17.664 0-32-14.336-32-32s14.336-32 32-32h672c17.664 0 32 14.336 32 32s-14.336 32-32 32zM96 263.111h-64c-17.664 0-32-14.336-32-32v-64c0-17.664 14.336-32 32-32h64c17.664 0 32 14.336 32 32v64c0 17.664-14.336 32-32 32zM992 231.111h-672c-17.664 0-32-14.336-32-32s14.336-32 32-32h672c17.664 0 32 14.336 32 32s-14.336 32-32 32zM96 775.111h-64c-17.664 0-32-14.336-32-32v-64c0-17.664 14.336-32 32-32h64c17.664 0 32 14.336 32 32v64c0 17.664-14.336 32-32 32zM320 679.111h672c17.664 0 32 14.336 32 32s-14.336 32-32 32h-672c-17.664 0-32-14.336-32-32s14.336-32 32-32z" />
<glyph unicode="&#xe074;" glyph-name="salient-m-user" d="M512 967.111q69.667 0 128.5-34.333t93.167-93.167 34.333-128.5v-128q0-53.333-20.667-101t-57.667-83q97.333-15.333 173-45.167t118.5-70.5 42.833-85.667v-84q0-53-37.5-90.5t-90.5-37.5h-768q-53 0-90.5 37.5t-37.5 90.5v84.333q0 45 42.833 85.667t118.333 70.5 172.833 44.833q-36.667 35.667-57.333 83.167t-20.667 100.833v128q0 69.667 34.333 128.5t93.167 93.167 128.5 34.333zM512 327.111q-92.667 0-178.833-14.833t-150.167-41.5q-25.667-10.667-45.833-22.667t-30.667-21.667-15.833-16.833-5.333-11.5v-84.333q0-17.667 12.5-30.167t30.167-12.5h768q17.667 0 30.167 12.5t12.5 30.167v84q0 4.333-5.333 11.5t-15.833 16.833-30.667 21.667-45.833 23q-64 26.667-150.167 41.5t-178.833 14.833zM512 881.778q-70.667 0-120.667-50t-50-120.667v-128q0-70.667 50-120.667t120.667-50 120.667 50 50 120.667v128q0 70.667-50 120.667t-120.667 50z" />
<glyph unicode="&#xe076;" glyph-name="salient-m-chat" d="M170.667 924.444h682.667q53 0 90.5-37.5t37.5-90.5v-469.333q0-53-37.5-90.5t-90.5-37.5h-341.333l-298.667-213.333v213.333h-42.667q-53 0-90.5 37.5t-37.5 90.5v469.333q0 53 37.5 90.5t90.5 37.5zM853.333 839.111h-682.667q-17.667 0-30.167-12.5t-12.5-30.167v-469.333q0-17.667 12.5-30.167t30.167-12.5h128v-133l186 133h368.667q17.667 0 30.167 12.5t12.5 30.167v469.333q0 17.667-12.5 30.167t-30.167 12.5z" />
<glyph unicode="&#xe081;" glyph-name="salient-m-social" d="M768 881.778q70.667 0 120.667-50t50-120.667-50-120.667-120.667-50q-37.667 0-71.167 15.5t-57.5 43.167l-216.333-108.333q3.667-17.667 3.667-35.667t-3.667-35.667l216.333-108.333q24 27.667 57.5 43.167t71.167 15.5q70.667 0 120.667-50t50-120.667-50-120.667-120.667-50-120.667 50-50 120.667q0 18 3.667 35.667l-216.333 108.333q-24-27.667-57.5-43.167t-71.167-15.5q-70.667 0-120.667 50t-50 120.667 50 120.667 120.667 50q37.667 0 71.167-15.5t57.5-43.167l216.333 108.333q-3.667 17.667-3.667 35.667 0 70.667 50 120.667t120.667 50zM256 540.444q-35.333 0-60.333-25t-25-60.333 25-60.333 60.333-25 60.333 25 25 60.333-25 60.333-60.333 25zM768 284.444q-35.333 0-60.333-25t-25-60.333 25-60.333 60.333-25 60.333 25 25 60.333-25 60.333-60.333 25zM768 796.444q-35.333 0-60.333-25t-25-60.333 25-60.333 60.333-25 60.333 25 25 60.333-25 60.333-60.333 25z" />
<glyph unicode="&#xe087;" glyph-name="uniE087" d="M515.472 645.703c-106.032 0-192-85.968-192-192 0-106.016 85.968-192 192-192s192 85.968 192 192c0 106.032-85.968 192-192 192zM515.472 325.703c-70.576 0-129.472 58.816-129.472 129.392s57.424 128 128 128c70.592 0 128-57.424 128-128s-55.936-129.392-126.528-129.392zM1023.68 462.535c-0.368 1.616-0.208 3.328-0.688 4.912-0.208 0.672-0.624 1.056-0.864 1.648-0.336 0.912-0.256 1.984-0.72 2.864-93.072 213.104-293.664 335.76-507.424 335.76s-418.368-122.432-511.488-335.552c-0.4-0.896-0.336-1.824-0.656-2.848-0.224-0.624-0.688-0.976-0.896-1.568-0.496-1.616-0.304-3.296-0.608-4.928-0.592-2.88-1.136-5.68-1.136-8.592 0-2.944 0.544-5.664 1.136-8.592 0.32-1.6 0.112-3.344 0.608-4.88 0.208-0.72 0.672-1.024 0.896-1.68 0.336-0.88 0.256-1.968 0.656-2.848 93.136-213.056 295.744-333.712 509.504-333.712 213.776 0 416.336 120.4 509.44 333.504 0.464 0.912 0.368 1.872 0.72 2.88 0.224 0.56 0.656 0.976 0.848 1.6 0.496 1.568 0.336 3.28 0.688 4.912 0.56 2.864 1.088 5.664 1.088 8.624 0 2.816-0.528 5.6-1.104 8.496zM512 166.519c-181.296 0-359.744 95.568-447.424 287.68 86.848 191.472 267.68 289.504 449.424 289.504 181.68 0 358.496-98.144 445.376-289.712-86.816-191.408-265.632-287.472-447.376-287.472z" />
<glyph unicode="&#xe094;" glyph-name="salient-m-left-arrow" d="M426.667 796.444q17.667 0 30.167-12.5t12.5-30.167q0-18-12.667-30.333l-225.667-225.667h665q17.667 0 30.167-12.5t12.5-30.167-12.5-30.167-30.167-12.5h-665l225.667-225.667q12.667-12.333 12.667-30.333 0-17.667-12.5-30.167t-30.167-12.5q-18 0-30.333 12.333l-298.667 298.667q-12.333 13-12.333 30.333t12.333 30.333l298.667 298.667q12.667 12.333 30.333 12.333z" />
<glyph unicode="&#xe095;" glyph-name="salient-m-right-arrow" d="M597.333 796.444q18 0 30.333-12.333l298.667-298.667q12.333-12.333 12.333-30.333t-12.333-30.333l-298.667-298.667q-12.333-12.333-30.333-12.333-18.333 0-30.5 12.167t-12.167 30.5q0 18 12.333 30.333l226 225.667h-665q-17.667 0-30.167 12.5t-12.5 30.167 12.5 30.167 30.167 12.5h665l-226 225.667q-12.333 12.333-12.333 30.333 0 18.333 12.167 30.5t30.5 12.167z" />
<glyph unicode="&#xe098;" glyph-name="salient-m-sound" d="M213.333 625.778l213.333 213.333v-768l-213.333 213.333h-85.333q-53 0-90.5 37.5t-37.5 90.5v83.667q0 53 37.5 91.333t90.5 38.333h85.333zM341.333 277.111v357.667l-92.667-94.333h-120.667q-17.333 0-30-13.167t-12.667-31.167v-83.667q0-17.667 12.5-30.167t30.167-12.5h120.667zM620 597.444q12.333 0 23.167-7t16.167-19q23.333-56.333 23.333-116.333 0-61-23.333-115.667-5-12-15.833-19.167t-23.5-7.167q-15.667 0-29.167 11.833t-13.5 30.833q0 7.667 3.333 16.667 16.667 39.333 16.667 82.667 0 43-16.667 83-3.333 7.667-3.333 16.667 0 19 12.833 30.833t29.833 11.833zM750.333 716.444q24 0 36.667-21 33-55 49-113.667 17.333-62.667 17.333-126.667 0-63.667-17.333-127-16.333-59.333-49-113.667-12.333-20.667-36.667-20.667-16.667 0-29.667 12t-13 30.667q0 11.667 6.333 22 26 43.333 39.667 92.667 14.333 50 14.333 104 0 53.667-14.333 103.667-13.667 49.333-39.667 93-6.333 9.667-6.333 21.667 0 18 13.167 30.5t29.5 12.5zM878 833.444q23 0 35.333-18.667 54.333-79.667 82.5-171.333t28.167-188.333-28.167-188.333-82.5-171.333q-12-18.667-35.333-18.667-17.333 0-29.833 12t-12.5 30.667q0 13.333 7.333 24 95.667 140.333 95.667 311.667 0 84-24.333 163.333t-71.333 148.333q-7.333 10.667-7.333 24 0 18.667 12.5 30.667t29.833 12z" />
<glyph unicode="&#xe099;" glyph-name="salient-m-mute" d="M256 625.778l213.333 213.333v-768l-213.333 213.333h-85.333q-53 0-90.5 37.5t-37.5 90.5v83.667q0 53 37.5 91.333t90.5 38.333h85.333zM384 277.111v357.667l-92.667-94.333h-120.667q-17.333 0-30-13.167t-12.667-31.167v-83.667q0-17.667 12.5-30.167t30.167-12.5h120.667zM896 625.778q18.333 0 30.5-12.167t12.167-30.5q0-18-12.333-30.333l-98-97.667 98-97.667q12.333-12.333 12.333-30.333 0-18.333-12.167-30.5t-30.5-12.167q-18 0-30.333 12.333l-97.667 98-97.667-98q-12.333-12.333-30.333-12.333-18.333 0-30.5 12.167t-12.167 30.5q0 18 12.333 30.333l98 97.667-98 97.667q-12.333 12.333-12.333 30.333 0 18.333 12.167 30.5t30.5 12.167q18 0 30.333-12.333l97.667-98 97.667 98q12.333 12.333 30.333 12.333z" />
<glyph unicode="&#xe09b;" glyph-name="uniE09B" d="M512 889.623l137.472-285.088 312.608-46.464-226.416-225.84 7.616-45.312 45.28-270.16-276.608 148.784-276.592-148.848 45.296 270.224 7.584 45.312-226.336 225.872 312.592 46.464 20.544 42.544 116.96 242.512zM511.984 951.559c-28.656 0-54.784-16.176-66.976-41.456l-115.904-240.64-266.704-39.664c-27.392-4.096-50.144-22.8-58.976-48.384-8.816-25.664-2.144-53.904 17.2-73.152l195.408-195.2-45.328-270.656c-4.56-27.28 7.232-54.624 30.368-70.576 12.72-8.736 27.664-13.152 42.624-13.152 12.32 0 24.64 2.992 35.792 8.976l232.496 125.184 232.512-125.184c11.184-5.984 23.504-8.976 35.776-8.976 14.96 0 29.904 4.416 42.656 13.152 23.104 15.952 34.912 43.296 30.32 70.576l-45.344 270.656 195.504 195.2c19.344 19.248 25.968 47.504 17.152 73.152-8.848 25.616-31.6 44.32-58.976 48.384l-266.656 39.664-115.968 240.64c-12.112 25.312-38.256 41.456-66.976 41.456v0z" />
<glyph unicode="&#xe106;" glyph-name="e900" d="M512 967.111q43.333 0 82.833-17t68-45.5 45.5-68 17-82.833v-42.667h170.667v-640q0-53-37.5-90.5t-90.5-37.5h-512q-53 0-90.5 37.5t-37.5 90.5v640h170.667v42.667q0 43.333 17 82.833t45.5 68 68 45.5 82.833 17zM810.667 71.111v554.667h-597.333v-554.667q0-17.667 12.5-30.167t30.167-12.5h512q17.667 0 30.167 12.5t12.5 30.167zM512 881.778q-53 0-90.5-37.5t-37.5-90.5v-42.667h256v42.667q0 53-37.5 90.5t-90.5 37.5z" />
<glyph unicode="&#xe110;" glyph-name="uniE110" d="M725.333 924.444h128q53 0 90.5-37.5t37.5-90.5v-128q0-17.667-12.5-30.167t-30.167-12.5-30.167 12.5-12.5 30.167v128q0 17.667-12.5 30.167t-30.167 12.5h-128q-17.667 0-30.167 12.5t-12.5 30.167 12.5 30.167 30.167 12.5zM85.333 284.444q17.667 0 30.167-12.5t12.5-30.167v-128q0-17.667 12.5-30.167t30.167-12.5h128q17.667 0 30.167-12.5t12.5-30.167-12.5-30.167-30.167-12.5h-128q-53 0-90.5 37.5t-37.5 90.5v128q0 17.667 12.5 30.167t30.167 12.5zM170.667 924.444h128q17.667 0 30.167-12.5t12.5-30.167-12.5-30.167-30.167-12.5h-128q-17.667 0-30.167-12.5t-12.5-30.167v-128q0-17.667-12.5-30.167t-30.167-12.5-30.167 12.5-12.5 30.167v128q0 53 37.5 90.5t90.5 37.5zM938.667 284.444q17.667 0 30.167-12.5t12.5-30.167v-128q0-53-37.5-90.5t-90.5-37.5h-128q-17.667 0-30.167 12.5t-12.5 30.167 12.5 30.167 30.167 12.5h128q17.667 0 30.167 12.5t12.5 30.167v128q0 17.667 12.5 30.167t30.167 12.5z" />
<glyph unicode="&#xe111;" glyph-name="uniE111" d="M725.333 924.444q17.667 0 30.167-12.5t12.5-30.167v-128q0-17.667 12.5-30.167t30.167-12.5h128q17.667 0 30.167-12.5t12.5-30.167-12.5-30.167-30.167-12.5h-128q-53 0-90.5 37.5t-37.5 90.5v128q0 17.667 12.5 30.167t30.167 12.5zM85.333 284.444h128q53 0 90.5-37.5t37.5-90.5v-128q0-17.667-12.5-30.167t-30.167-12.5-30.167 12.5-12.5 30.167v128q0 17.667-12.5 30.167t-30.167 12.5h-128q-17.667 0-30.167 12.5t-12.5 30.167 12.5 30.167 30.167 12.5zM298.667 924.444q17.667 0 30.167-12.5t12.5-30.167v-128q0-53-37.5-90.5t-90.5-37.5h-128q-17.667 0-30.167 12.5t-12.5 30.167 12.5 30.167 30.167 12.5h128q17.667 0 30.167 12.5t12.5 30.167v128q0 17.667 12.5 30.167t30.167 12.5zM810.667 284.444h128q17.667 0 30.167-12.5t12.5-30.167-12.5-30.167-30.167-12.5h-128q-17.667 0-30.167-12.5t-12.5-30.167v-128q0-17.667-12.5-30.167t-30.167-12.5-30.167 12.5-12.5 30.167v128q0 53 37.5 90.5t90.5 37.5z" />
<glyph unicode="&#xe117;" glyph-name="salient-m-close" d="M810.667 796.444q18.333 0 30.5-12.167t12.167-30.5q0-18-12.333-30.333l-268.667-268.333 268.667-268.333q12.333-12.333 12.333-30.333 0-18.333-12.167-30.5t-30.5-12.167q-18 0-30.333 12.333l-268.333 268.667-268.333-268.667q-12.333-12.333-30.333-12.333-18.333 0-30.5 12.167t-12.167 30.5q0 18 12.333 30.333l268.667 268.333-268.667 268.333q-12.333 12.333-12.333 30.333 0 18.333 12.167 30.5t30.5 12.167q18 0 30.333-12.333l268.333-268.667 268.333 268.667q12.333 12.333 30.333 12.333z" />
<glyph unicode="&#xe120;" glyph-name="salient-m-menu" d="M128 753.778h768q17.667 0 30.167-12.5t12.5-30.167-12.5-30.167-30.167-12.5h-768q-17.667 0-30.167 12.5t-12.5 30.167 12.5 30.167 30.167 12.5zM128 241.778h768q17.667 0 30.167-12.5t12.5-30.167-12.5-30.167-30.167-12.5h-768q-17.667 0-30.167 12.5t-12.5 30.167 12.5 30.167 30.167 12.5zM128 497.778h768q17.667 0 30.167-12.5t12.5-30.167-12.5-30.167-30.167-12.5h-768q-17.667 0-30.167 12.5t-12.5 30.167 12.5 30.167 30.167 12.5z" />
<glyph unicode="&#xe600;" glyph-name="soundcloud" d="M891.96 452.883c-18.086 0-35.348-3.52-51.064-9.856-10.506 114.358-110.29 204.060-232 204.060-29.786 0-58.682-5.63-84.318-15.164-9.96-3.702-12.578-7.52-12.578-14.916v-402.714c0-7.766 6.24-14.234 14.124-14.996 0.336-0.034 363.536-0.21 365.89-0.21 72.904 0 131.986 56.816 131.986 126.894s-59.134 126.902-132.040 126.902zM400 199.087h32l16 224.22-16 223.78h-32l-16-223.78zM304 199.087h-32l-16 162.75 16 157.25h32l16-160zM144 199.087h32l16 128-16 128h-32l-16-128zM16 263.087h32l16 64-16 64h-32l-16-64z" />
<glyph unicode="&#xe601;" glyph-name="button-arrow" d="M659.846 102.585c-7.558 0-15.134 2.908-20.91 8.664-11.572 11.552-11.572 30.27 0 41.82l271.524 271.524h-873.164c-16.324 0-29.574 13.25-29.574 29.614 0 16.322 13.23 29.572 29.574 29.572h873.164l-271.502 271.564c-11.53 11.552-11.53 30.27 0 41.82 11.53 11.53 30.27 11.53 41.82 0l342.876-342.958-342.918-342.958c-5.774-5.754-13.332-8.664-20.89-8.664z" />
<glyph unicode="&#xe602;" glyph-name="salient-thin-line" d="M284.432 451.231h473.226v-15.326h-473.226v15.326z" />
<glyph unicode="&#xe603;" glyph-name="uniE603" d="M101.888 693.731c0-76.442 25.55-131.686 75.878-164.096 41.216-26.574 89.088-30.566 113.972-30.566 6.042 0 10.854 0.256 14.234 0.462 0 0-7.884-51.354 30.208-102.194l-1.74 0.052c-65.998 0-281.294-13.824-281.294-190.822 0-180.070 197.734-189.184 237.362-189.184 3.122 0 4.916 0.052 4.916 0.052 0.462 0 3.276-0.102 8.090-0.102 25.446 0 91.238 3.174 152.372 32.922 79.258 38.452 119.5 105.422 119.5 198.912 0 90.368-61.236 144.128-105.984 183.45-27.29 23.962-50.892 44.646-50.892 64.768 0 20.48 17.202 35.892 39.014 55.398 35.226 31.538 68.506 76.442 68.506 161.332 0 74.65-9.678 124.722-69.324 156.466 6.246 3.174 28.212 5.478 39.118 7.014 32.308 4.404 79.564 9.422 79.564 35.788v5.068h-235.418c-2.356-0.050-238.080-8.806-238.080-224.716zM481.946 232.265c4.506-71.986-57.088-125.134-149.556-131.84-93.902-6.912-171.264 35.38-175.77 107.366-2.15 34.56 13.004 68.404 42.752 95.386 30.208 27.29 71.578 44.134 116.684 47.514 5.324 0.308 10.598 0.562 15.872 0.562 86.886 0 145.766-51.098 150.016-118.99zM420.454 743.037c23.092-81.254-11.776-166.196-67.328-181.862-6.4-1.792-13.004-2.714-19.662-2.714-50.944 0-101.376 51.506-120.064 122.47-10.444 39.884-9.626 74.702 2.354 108.236 11.776 32.922 32.922 55.246 59.546 62.72 6.4 1.842 13.056 2.714 19.712 2.714 61.44 0 100.966-25.498 125.44-111.564zM817.202 566.089v153.6h-97.28v-153.6h-153.6v-97.28h153.6v-153.6h97.28v153.6h153.6v97.28h-153.6z" />
<glyph unicode="&#xe604;" glyph-name="pinterest" d="M441.14 302.613c-26.88-140.954-59.7-276.122-156.98-346.726-30.002 213.094 44.082 373.094 78.49 542.976-58.676 98.816 7.066 297.574 130.866 248.576 152.32-60.262-131.89-367.258 58.88-405.606 199.22-40.038 280.524 345.6 157.030 470.988-178.482 181.146-519.578 4.198-477.594-255.026 10.188-63.386 75.674-82.638 26.164-170.086-114.228 25.294-148.326 115.404-143.924 235.52 7.066 196.558 176.64 334.182 346.726 353.228 215.142 24.116 417.024-78.95 444.826-281.292 31.386-228.352-97.024-475.7-327.116-457.882-62.31 4.762-88.474 35.634-137.37 65.332z" />
<glyph unicode="&#xe605;" glyph-name="uniE605" d="M259.892 823.727c0-54.426-40.192-98.51-106.29-98.51-62.208 0-102.4 44.082-102.4 98.51 0 55.706 41.522 98.51 105.010 98.51s102.4-42.802 103.68-98.51zM56.422 13.539v633.856h197.018v-633.856h-197.018zM371.354 445.205c0 79.052-2.61 145.152-5.222 202.188h171.11l9.114-88.166h3.89c25.908 41.522 89.446 102.4 195.738 102.4 129.586 0 226.816-86.834 226.816-273.51v-374.63h-197.018v351.284c0 81.664-28.57 137.42-99.84 137.42-54.426 0-86.784-37.582-101.068-73.882-5.222-12.954-6.502-31.078-6.502-49.254v-365.568h-197.018v431.718z" />
<glyph unicode="&#xe606;" glyph-name="salient-cart" d="M240.16 761.845l-18.164 107.322h-218.564l19.008-110.58h109.074l79.082-458.92h609.61l203.052 462.178h-783.098zM752.14 403.915h-453.728l-43.706 253.682h608.882l-111.448-253.682zM336.274 220.615c-50.382 0-91.218-40.844-91.218-91.216s40.834-91.218 91.218-91.218c50.382 0 91.218 40.846 91.218 91.22s-40.834 91.216-91.218 91.216zM704.616 220.615c-50.386 0-91.22-40.844-91.22-91.216s40.832-91.218 91.22-91.218c50.38 0 91.216 40.846 91.216 91.22s-40.836 91.216-91.216 91.216z" />
<glyph unicode="&#xf1bc;" glyph-name="salient-spotify" d="M39.586 445.945q0 128.616 63.384 237.23t172 172 237.232 63.384 237.23-63.384 172-172 63.384-237.23-63.384-237.23-172-172-237.23-63.384-237.23 63.384-172 172-63.384 237.23zM185.432 597.329q0-19.076 12.616-32t31.694-12.924q6.77 0 24.616 4.924 81.846 22.77 188.924 22.77 97.846 0 190.462-20.924t156-58.462q12.924-7.384 24.616-7.384 17.846 0 31.076 12.616t13.23 31.692q0 28.924-24.616 43.076-77.538 44.924-180.308 68t-211.076 23.076q-125.538 0-224-28.924-14.154-4.308-23.692-15.692t-9.538-29.846zM217.432 444.099q0-15.384 10.77-26.154t26.154-10.77q4.308 0 22.768 4.924 75.076 20.308 154.462 20.308 171.694 0 300.308-76.308 14.77-8 23.384-8 15.384 0 26.154 10.77t10.77 26.154q0 24.616-21.538 37.538-145.846 86.77-337.23 86.77-94.154 0-186.462-25.846-29.538-8-29.538-39.384zM237.122 301.945q0-12.308 8.306-21.23t21.846-8.924q3.076 0 22.77 4.924 81.23 16.616 149.538 16.616 139.076 0 244.308-63.384 11.692-6.77 20.308-6.77 11.692 0 20.308 8.308t8.616 21.23q0 19.692-18.462 31.384-118.77 70.77-275.076 70.77-81.846 0-176.616-20.924-25.846-5.538-25.846-32z" />
<glyph unicode="&#xe9004;" glyph-name="salient-m-bag" horiz-adv-x="853" d="M768-56.889h-682.667c-47.061 0-85.333 38.272-85.333 85.333v682.667c0 47.061 38.272 85.333 85.333 85.333h170.667v42.667c0 70.571 57.429 128 128 128h85.333c70.571 0 128-57.429 128-128v-42.667h170.667c47.061 0 85.333-38.272 85.333-85.333v-682.667c0-47.061-38.272-85.333-85.333-85.333zM512 839.111c0 23.509-19.157 42.667-42.667 42.667h-85.333c-23.509 0-42.667-19.157-42.667-42.667v-42.667h170.667v42.667zM597.333 711.111v-42.667c0-23.552-19.115-42.667-42.667-42.667s-42.667 19.115-42.667 42.667v42.667h-170.667v-42.667c0-23.552-19.115-42.667-42.667-42.667s-42.667 19.115-42.667 42.667v42.667h-170.667v-682.667h682.539l0.128 682.667h-170.667z" />
</font>
</defs>
</svg>
